Race 3 (2018) Hindi 720p HQ PRE x264 AAC(Clean Audio) [MovCr]

seeders: 172
leechers: 37
updated:
Added by ictv in Other


strongly advises you to use NordVPN while downloading torrents.
NordVPN is the safest VPN on the market, and the fastest VPN as well.
No IP Log is saved using NordVPN, avoid other VPN providers and choose the safest one.
Click here and buy NordVPN it's on rebates today!
We were able to verify your IP: 185.223.165.189 and country: Russian Federation.
If we can do that, others can too, protect your privacy with NordVPN.
is trying the best for you!


Description

Visit Our Site For Exclusives  www.movcr.com  

Sample : Check Here  

http://www.imdb.com/title/tt7431594/  

 

General
Unique ID                   : 231854111218540883003428649978328329275 (0xAE6D7A40E192741120F240F71F492C3B)
Complete name               : [MovCr.com] - Race 3 (2018) Hindi 720p HQ PRE x264 AAC(Clean Audio) [MovCr]\www.MovCr.com - Race 3 (2018) Hindi 720p HQ PRE x264 AAC(Clean Audio) [MovCr].mkv
Format                      : Matroska
Format version              : Version 4 / Version 2
File size                   : 1.87 GiB
Duration                    : 2 h 30 min
Overall bit rate            : 1 780 kb/s
Movie name                  : www.MovCr.com
Encoded date                : UTC 2018-06-16 06:11:11
Writing application         : mkvmerge v23.0.0 ('The Bride Said No') 64-bit
Writing library             : libebml v1.3.6 + libmatroska v1.4.9

Video
ID                          : 1
Format                      : AVC
Format/Info                 : Advanced Video Codec
Format profile              : [email protected] 
Format settings, CABAC      : Yes
Format settings, ReFrames   : 4 frames
Codec ID                    : V_MPEG4/ISO/AVC 
Duration                    : 2 h 30 min
Bit rate                    : 1 617 kb/s
Width                       : 1 280 pixels
Height                      : 568 pixels
Display aspect ratio        : 2.35:1
Frame rate mode             : Constant
Frame rate                  : 25.000 FPS
Color space                 : YUV
Chroma subsampling          : 4:2:0
Bit depth                   : 8 bits
Scan type                   : Progressive
Bits/(Pixel*Frame)          : 0.089
Stream size                 : 1.70 GiB (91%)
Title                       : www.MovCr.com
Writing library             : x264 core 155 r2893 b00bcaf
Encoding settings           : cabac=1 / ref=2 / deblock=1:0:0 / analyse=0x1:0x111 / me=hex / subme=6 / psy=1 / psy_rd=1.00:0.00 / mixed_ref=1 / me_range=16 / chroma_me=1 / trellis=1 / 8x8dct=0 / cqm=0 / deadzone=21,11 / fast_pskip=1 / chroma_qp_offset=-2 / threads=12 / lookahead_threads=2 / sliced_threads=0 / nr=0 / decimate=1 / interlaced=0 / bluray_compat=0 / constrained_intra=0 / bframes=3 / b_pyramid=2 / b_adapt=1 / b_bias=0 / direct=1 / weightb=1 / open_gop=0 / weightp=1 / keyint=250 / keyint_min=25 / scenecut=40 / intra_refresh=0 / rc_lookahead=30 / rc=crf / mbtree=1 / crf=21.0 / qcomp=0.60 / qpmin=0 / qpmax=69 / qpstep=4 / vbv_maxrate=14000 / vbv_bufsize=14000 / crf_max=0.0 / nal_hrd=none / filler=0 / ip_ratio=1.40 / aq=1:1.00
Default                     : Yes
Forced                      : No
Color range                 : Limited
Color primaries             : BT.601 PAL
Transfer characteristics    : BT.709
Matrix coefficients         : BT.601

Audio
ID                          : 2
Format                      : AAC
Format/Info                 : Advanced Audio Codec
Format profile              : LC
Codec ID                    : A_AAC
Duration                    : 2 h 30 min
Bit rate                    : 160 kb/s
Channel(s)                  : 2 channels
Channel positions           : Front: L R
Sampling rate               : 48.0 kHz
Frame rate                  : 46.875 FPS (1024 spf)
Compression mode            : Lossy
Delay relative to video     : -21 ms
Stream size                 : 173 MiB (9%)
Title                       : www.MovCr.com
Language                    : Hindi
Default                     : Yes
Forced                      : No

  

            

Sharing Widget


Download torrent
Size: 1.9 GB
seeders:172
leechers:37
Race 3 (2018) Hindi 720p HQ PRE x264 AAC(Clean Audio) [MovCr] - (2040109465 Bytes)



To share this torrent use the code below and insert it into comments, status messages, forum posts or your signature.

Torrent: Race 3 (2018) Hindi 720p HQ PRE x264 AAC(Clean Audio) [MovCr]

Trackers

tracker name
udp://tracker.openbittorrent.com:80/announce
udp://tracker.coppersurfer.tk:6969/announce
udp://zer0day.ch:1337/announce
udp://tracker.leechers-paradise.org:6969/announce
udp://9.rarbg.com:2750/announce
http://share.camoe.cn:8080/announce
udp://tracker.torrent.eu.org:451/announce
http://t.nyaatracker.com:80/announce
udp://tracker.doko.moe:6969/announce
http://asnet.pw:2710/announce
udp://thetracker.org:80/announce
http://tracker.tfile.co:80/announce
http://pt.lax.mx:80/announce
udp://santost12.xyz:6969/announce
udp://tracker.zer0day.to:1337/announce
udp://tracker.leechers-paradise.org:6969/announce
udp://coppersurfer.tk:6969/announce
ĀµTorrent compatible trackers list

Locations

name
KickassTorrents
Torrent hash: 97869324E3879D1B43206C51BAB0FB5DA412B421

strongly advises you to use NordVPN while downloading torrents.
NordVPN is the safest VPN on the market, and the fastest VPN as well.
No IP Log is saved using NordVPN, avoid other VPN providers and choose the safest one.
Click here and buy NordVPN it's on rebates today!
We were able to verify your IP: 185.223.165.189 and country: Russian Federation.
If we can do that, others can too, protect your privacy with NordVPN.
is trying the best for you!

All Comments

*comments box temporarily disabled*
Report a bug